Необыкновенные люди / Extraordinary Humans / Сезон 1 / Серии 1-4,6 из ?? [2015, Познавательный UHDTV 4k 2160p]

Модератор: Модераторы


Раздал: 43.28 ТБ
Скачал: 123.56 ГБ
Ратио: 358.705
Сообщения: 402

Зарегистрирован: 10 сен 2013, 15:44
Откуда: Россия, Башкортостан, Уфа

Необыкновенные люди / Extraordinary Humans

Сезон: 1 / Серии: 1-4,6 из ??

Год выхода: 2015
Жанр: Познавательный

Описание: В этой невероятной программе биолог, эксперт по выживанию и искатель приключений Том Хан отправляется на поиски необыкновенных людей, обладателей уникальных способностей, чьи способности выходят далеко за пределы возможность человеческого разума и тела...

Качество: UHDTV 4K 2160p | Семпл
Перевод: Профессиональный многоголосый (1ТВЧ)
Продолжительность: ~00:51:00 [серия]

Формат: MKV
Видео: HEVC | Main 10@L5.1@Main | 10bit | 3840x2160p | 50.000fps | ~15-19Mbps
Аудио MP2 | 48KHz | 2.0 (Front: L R) | 192 kbps [RUS]
Код: Выделить всё
Общее
Уникальный идентификатор                 : 249761993049675530460277403192025620685 (0xBBE668FED4DFA55E9F3EAA579A2F20CD)
Полное имя                               : Extraordinary.Humans.S01E02.UHDTV4k.2160p.HEVC-CasStudio.mkv
Формат                                   : Matroska
Версия формата                           : Version 4 / Version 2
Размер файла                             : 6,74 Гбайт
Продолжительность                        : 51 м.
Общий поток                              : 18,9 Мбит/сек
Дата кодирования                         : UTC 2015-12-21 01:24:15
Программа кодирования                    : mkvmerge v8.6.1 ('Flying') 64bit
Библиотека кодирования                   : libebml v1.3.3 + libmatroska v1.4.4

Видео
Идентификатор                            : 1
Формат                                   : HEVC
Формат/Информация                        : High Efficiency Video Coding
Профиль формата                          : Main 10@L5.1@Main
Идентификатор кодека                     : V_MPEGH/ISO/HEVC
Продолжительность                        : 51 м.
Битрейт                                  : 18,7 Мбит/сек
Ширина                                   : 3840 пикселей
Высота                                   : 2160 пикселей
Соотношение сторон                       : 16:9
Режим частоты кадров                     : Постоянный
Частота кадров                           : 50,000 кадров/сек
Цветовое пространство                    : YUV
Субдискретизация насыщенности            : 4:2:0
Битовая глубина                          : 10 бит
Бит/(Пиксели*Кадры)                      : 0.045
Размер потока                            : 6,67 Гбайт (99%)
Язык                                     : English
Default                                  : Да
Forced                                   : Нет

Аудио
Идентификатор                            : 2
Формат                                   : MPEG Audio
Версия формата                           : Version 1
Профиль формата                          : Layer 2
Идентификатор кодека                     : A_MPEG/L2
Идентификатор кодека/Подсказка           : MP2
Продолжительность                        : 51 м.
Вид битрейта                             : Постоянный
Битрейт                                  : 192 Кбит/сек
Каналы                                   : 2 канала
Частота                                  : 48,0 КГц
Частота кадров                           : 41,667 кадра/сек (1152 spf)
Метод сжатия                             : С потерями
Задержка видео                           : 156 мс.
Размер потока                            : 70,2 Мбайт (1%)
Язык                                     : Russian
Default                                  : Да
Forced                                   : Нет



Поблагодарить:
WMR: R164499266622 | WMZ: Z467211200259 | ЯД: 41001535612581
  • Торрент
Для скачивания торрента необходимо зарегистрироваться или войти на трекер.

Раздал: 952.34 ГБ
Скачал: 142.77 ГБ
Ратио: 6.670
Сообщения: 2

Зарегистрирован: 09 ноя 2015, 17:11
есть возможность пережать хотя бы до 1080? у меня ни что не вывозит такое разрешение. а по смотреть очень хочется =\

Вернуться в Документальные и научно-популярные передачи


cron
Яндекс.Метрика