Знаете ли Вы? / Ever Wondered? / Сезон 2 / серии 1-10 из 10 [2011, научно-популярный, UHDTV 4k 2160p]

Модератор: Модераторы


Раздал: 43.28 ТБ
Скачал: 123.56 ГБ
Ратио: 358.705
Сообщения: 402

Зарегистрирован: 10 сен 2013, 15:44
Откуда: Россия, Башкортостан, Уфа

Знаете ли Вы? / Ever Wondered?

Год выпуска: 2010
Страна: Новая Зеландия
Жанр: научно-популярный
Ведущий: Джон Ватт / John Watt

Описание: Ученый-химик Джон Ватт будет знакомить зрителей с самыми передовыми исследованиями новозеландской науки, демонстрируя важные научные прорывы и открытия новозеландских ученых, многие из которых со временем должны изменить облик планеты. Джон будет встречаться и беседовать с лучшими умами Новой Зеландии, а так же заглянет за кулисы ряда исследовательских центров, открывая зрителю самые потрясающие и невероятные разработки в области науки и технологии.

Качество: UHDTV 4K 2160p | Семпл
Перевод: Профессиональный многоголосый (1ТВЧ)
Продолжительность: ~00:51:00 [серия]

Формат: MKV
Видео: HEVC | Main 10@L5.1@Main | 10bit | 1920x1080p | 50.000fps | ~15-19Mbps
Аудио MP2 | 48KHz | 2.0 (Front: L R) | 192 kbps [RUS]
Код: Выделить всё
Общее
Уникальный идентификатор                 : 220365217966403042962798978458856527205 (0xA5C8CC152FEEBA8791B546B8865D1565)
Полное имя                               : H:\UHD\Ever Wondered\Ever.Wondered.S02.UHDTV4k.2160p.HEVC-CasStudio\Ever.Wondered.S02E10.UHDTV4k.2160p.HEVC-CasStudio.mkv
Формат                                   : Matroska
Версия формата                           : Version 4 / Version 2
Размер файла                             : 2,95 Гбайт
Продолжительность                        : 22 м.
Общий поток                              : 18,9 Мбит/сек
Дата кодирования                         : UTC 2015-12-27 23:31:40
Программа кодирования                    : mkvmerge v8.6.1 ('Flying') 64bit
Библиотека кодирования                   : libebml v1.3.3 + libmatroska v1.4.4

Видео
Идентификатор                            : 1
Формат                                   : HEVC
Формат/Информация                        : High Efficiency Video Coding
Профиль формата                          : Main 10@L5.1@Main
Идентификатор кодека                     : V_MPEGH/ISO/HEVC
Продолжительность                        : 22 м.
Битрейт                                  : 18,7 Мбит/сек
Ширина                                   : 3840 пикселей
Высота                                   : 2160 пикселей
Соотношение сторон                       : 16:9
Режим частоты кадров                     : Переменный
Частота кадров                           : 50,000 кадров/сек
Цветовое пространство                    : YUV
Субдискретизация насыщенности            : 4:2:0
Битовая глубина                          : 10 бит
Бит/(Пиксели*Кадры)                      : 0.045
Размер потока                            : 2,92 Гбайт (99%)
Язык                                     : English
Default                                  : Да
Forced                                   : Нет

Аудио
Идентификатор                            : 2
Формат                                   : MPEG Audio
Идентификатор кодека                     : A_MPEG/L2
Идентификатор кодека/Подсказка           : MP2
Продолжительность                        : 22 м.
Битрейт                                  : 192 Кбит/сек
Каналы                                   : 2 канала
Частота                                  : 48,0 КГц
Частота кадров                           : 41,667 кадра/сек (1152 spf)
Метод сжатия                             : С потерями
Размер потока                            : 30,8 Мбайт (1%)
Язык                                     : Russian
Default                                  : Да



Поблагодарить:
WMR: R164499266622 | WMZ: Z467211200259 | ЯД: 41001535612581
  • Торрент
Для скачивания торрента необходимо зарегистрироваться или войти на трекер.

Раздал: 19.74 ТБ
Скачал: 674.8 ГБ
Ратио: 29.960
Сообщения: 3

Зарегистрирован: 16 июл 2016, 04:29
ребята ни у кого не осталось? с ex.ua скачать не могу, т.к. из России :oops:

Вернуться в Документальные и научно-популярные передачи


Яндекс.Метрика