Высшее общество / High Life [2018, фантастика, триллер, BDRip 720p]

Модератор: Модераторы


Раздал: 1.49 ТБ
Скачал: 253.64 ГБ
Ратио: 6.018
Сообщения: 123

Зарегистрирован: 24 июл 2012, 21:04
Высшее общество / High Life

«Oblivion awaits»

Год выхода: 2018
Жанр: фантастика, триллер
Выпущено: Великобритания, Франция, Германия, Польша
Режиссёр: Клер Дени / Claire Denis

В ролях: Роберт Паттинсон, Жюльет Бинош, Андре Бенджамин, Миа Гот, Агата Бузек, Ларс Айдингер, Клер Тран, Юэн Митчелл, Глория Обианьо, Скарлет Линдси, Джесси Росс и др.

Описание: Где-то за пределами Солнечной системы экипаж космического корабля выполняет необычную миссию. Его цель — ближайшая к Земле черная дыра. На его борту команда молодых мужчин и женщин — преступников, приговоренных к пожизненному заключению. В их числе Монте, добровольно отказавшийся от любви и интимных отношений. Обманным путем его семя вживляется одной из космических узниц. Рождается девочка, которой суждено изменить жизнь героя…



Качество: BDRip 720p
Перевод: Дублированный, Профессиональный многоголосый
Продолжительность: 01:53:02

Формат: MKV
Источник: High.Life.2018.1080p.BluRay.AVC.DTS-HD.MA.5.1-PCH
Видео: 1280x720 at 23.976 fps, MPEG-4 AVC, ~8651 kbps avg
Аудио #1: Russian: 48 kHz, AC3, 3/2 (L,C,R,l,r) + LFE ch, ~384.00 kbps avg |Дублированный, iTunes|
Аудио #2: Russian: 48 kHz, AAC, 2/0 (L,R) ch, ~136.00 kbps avg |Многоголосый закадровый, HDrezka Studio|
Аудио #3: English: 48 kHz, AC3, 3/2 (L,C,R,l,r) + LFE ch, ~640.00 kbps avg
Субтитры: Russian (iTunes, Dark_Alice), English (SDH)

Релиз:
Рип: whip93
General
Unique ID : 47021261427006559380734157701000266904 (0x235FF72DA9BF5686B6B5D505A70D0498)
Complete name : C:\Фильмы\High.Life.2018.720p.BluRay.DD5.1.x264-CasStudio.mkv
Format : Matroska
Format version : Version 4
File size : 7.75 GiB
Duration : 1 h 53 min
Overall bit rate : 9 814 kb/s
Movie name : Высшее общество | High Life (2018) - Release by whip93 x CasStudio
Encoded date : UTC 2019-05-06 14:51:21
Writing application : mkvmerge v33.1.0 ('Primrose') 64-bit
Writing library : libebml v1.3.7 + libmatroska v1.5.0

Video
ID : 1
Format : AVC
Format/Info : Advanced Video Codec
Format profile : High@L4.1
Format settings : CABAC / 9 Ref Frames
Format settings, CABAC : Yes
Format settings, ReFrames : 9 frames
Codec ID : V_MPEG4/ISO/AVC
Duration : 1 h 53 min
Bit rate : 8 651 kb/s
Width : 1 280 pixels
Height : 720 pixels
Display aspect ratio : 16:9
Frame rate mode : Constant
Frame rate : 23.976 (24000/1001) FPS
Color space : YUV
Chroma subsampling : 4:2:0
Bit depth : 8 bits
Scan type : Progressive
Bits/(Pixel*Frame) : 0.392
Stream size : 6.83 GiB (88%)
Title : Encoded by whip93
Writing library : x264 core 157 r2932 303c484
Encoding settings : cabac=1 / ref=9 / deblock=1:-3:-3 / analyse=0x3:0x133 / me=umh / subme=11 / psy=1 / psy_rd=1.10:0.05 / mixed_ref=1 / me_range=48 / chroma_me=1 / trellis=2 / 8x8dct=1 / cqm=0 / deadzone=21,11 / fast_pskip=1 / chroma_qp_offset=-3 / threads=12 / lookahead_threads=3 / sliced_threads=0 / nr=0 / decimate=1 / interlaced=0 / bluray_compat=0 / constrained_intra=0 / bframes=16 / b_pyramid=2 / b_adapt=2 / b_bias=0 / direct=3 / weightb=1 / open_gop=0 / weightp=2 / keyint=240 / keyint_min=23 / scenecut=40 / intra_refresh=0 / rc_lookahead=60 / rc=crf / mbtree=0 / crf=17.0 / qcomp=0.72 / qpmin=0 / qpmax=69 / qpstep=4 / vbv_maxrate=62500 / vbv_bufsize=78125 / crf_max=0.0 / nal_hrd=none / filler=0 / ip_ratio=1.40 / pb_ratio=1.30 / aq=3:0.80
Language : English
Default : Yes
Forced : No
Color range : Limited
Color primaries : BT.709
Transfer characteristics : BT.709
Matrix coefficients : BT.709

Audio #1
ID : 2
Format : AC-3
Format/Info : Audio Coding 3
Commercial name : Dolby Digital
Codec ID : A_AC3
Duration : 1 h 53 min
Bit rate mode : Constant
Bit rate : 384 kb/s
Channel(s) : 6 channels
Channel layout : L R C LFE Ls Rs
Sampling rate : 48.0 kHz
Frame rate : 31.250 FPS (1536 SPF)
Bit depth : 16 bits
Compression mode : Lossy
Stream size : 310 MiB (4%)
Title : Dub (iTunes)
Language : Russian
Service kind : Complete Main
Default : Yes
Forced : No

Audio #2
ID : 3
Format : AAC LC
Format/Info : Advanced Audio Codec Low Complexity
Codec ID : A_AAC-2
Duration : 1 h 53 min
Bit rate : 136 kb/s
Channel(s) : 2 channels
Channel layout : L R
Sampling rate : 48.0 kHz
Frame rate : 46.875 FPS (1024 SPF)
Compression mode : Lossy
Stream size : 110 MiB (1%)
Title : MVO (HDrezka Studio)
Language : Russian
Default : No
Forced : No

Audio #3
ID : 4
Format : AC-3
Format/Info : Audio Coding 3
Commercial name : Dolby Digital
Codec ID : A_AC3
Duration : 1 h 53 min
Bit rate mode : Constant
Bit rate : 640 kb/s
Channel(s) : 6 channels
Channel layout : L R C LFE Ls Rs
Sampling rate : 48.0 kHz
Frame rate : 31.250 FPS (1536 SPF)
Bit depth : 16 bits
Compression mode : Lossy
Stream size : 517 MiB (7%)
Title : Original
Language : English
Service kind : Complete Main
Default : No
Forced : No

Text #1
ID : 5
Format : UTF-8
Codec ID : S_TEXT/UTF8
Codec ID/Info : UTF-8 Plain Text
Duration : 1 h 41 min
Bit rate : 29 b/s
Count of elements : 432
Stream size : 22.1 KiB (0%)
Title : iTunes
Language : Russian
Default : No
Forced : No

Text #2
ID : 6
Format : UTF-8
Codec ID : S_TEXT/UTF8
Codec ID/Info : UTF-8 Plain Text
Duration : 1 h 42 min
Bit rate : 26 b/s
Count of elements : 509
Stream size : 20.2 KiB (0%)
Title : Dark_Alice
Language : Russian
Default : No
Forced : No

Text #3
ID : 7
Format : UTF-8
Codec ID : S_TEXT/UTF8
Codec ID/Info : UTF-8 Plain Text
Duration : 1 h 46 min
Bit rate : 19 b/s
Count of elements : 641
Stream size : 15.2 KiB (0%)
Title : Original (SDH)
Language : English
Default : No
Forced : No

Menu
00:00:00.000 : en:Chapter 1
00:09:40.497 : en:Chapter 2
00:18:53.215 : en:Chapter 3
00:27:57.968 : en:Chapter 4
00:35:13.903 : en:Chapter 5
00:46:46.679 : en:Chapter 6
00:58:16.743 : en:Chapter 7
01:05:32.011 : en:Chapter 8
01:15:08.879 : en:Chapter 9
01:25:55.317 : en:Chapter 10
01:36:40.545 : en:Chapter 11
01:44:27.428 : en:Chapter 12

--- raw [info]: 1280x720p 1:1 @ 24000/1001 fps (cfr)
--- x264 [info]: using SAR=1/1
--- x264 [info]: using cpu capabilities: MMX2 SSE2Fast SSSE3 SSE4.2 AVX
--- x264 [info]: profile High, level 4.1, 4:2:0, 8-bit
--- x264 [info]: frame I:744 Avg QP:12.74 size:150160
--- x264 [info]: frame P:26103 Avg QP:14.15 size: 85357
--- x264 [info]: frame B:118999 Avg QP:16.30 size: 40184
--- x264 [info]: consecutive B-frames: 1.2% 1.1% 3.1% 7.6% 13.2% 50.9% 8.8% 2.3% 2.6% 1.9% 1.9% 0.5% 1.6% 2.7% 0.4% 0.1% 0.1%
--- x264 [info]: mb I I16..4: 18.0% 71.4% 10.6%
--- x264 [info]: mb P I16..4: 1.0% 29.6% 1.4% P16..4: 18.1% 25.5% 13.6% 2.5% 0.1% skip: 8.1%
--- x264 [info]: mb B I16..4: 0.1% 7.4% 0.1% B16..8: 30.8% 24.6% 8.1% direct: 7.1% skip:21.8% L0:48.8% L1:38.2% BI:12.9%
--- x264 [info]: 8x8 transform intra:93.9% inter:48.7%
--- x264 [info]: direct mvs spatial:100.0% temporal:0.0%
--- x264 [info]: coded y,uvDC,uvAC intra: 97.3% 92.6% 84.6% inter: 42.2% 35.4% 16.4%
--- x264 [info]: i16 v,h,dc,p: 53% 4% 15% 28%
--- x264 [info]: i8 v,h,dc,ddl,ddr,vr,hd,vl,hu: 9% 8% 19% 10% 12% 11% 10% 10% 12%
--- x264 [info]: i4 v,h,dc,ddl,ddr,vr,hd,vl,hu: 9% 6% 12% 10% 15% 12% 12% 11% 12%
--- x264 [info]: i8c dc,h,v,p: 56% 16% 13% 15%
--- x264 [info]: Weighted P-Frames: Y:4.1% UV:2.9%
--- x264 [info]: ref P L0: 37.9% 6.3% 20.8% 8.5% 8.4% 5.5% 5.8% 3.0% 3.5% 0.2% 0.0%
--- x264 [info]: ref B L0: 59.9% 15.7% 9.3% 5.4% 4.0% 3.4% 1.9% 0.5%
--- x264 [info]: ref B L1: 91.8% 8.2%
--- x264 [info]: kb/s:9365.98
  • Торрент
Для скачивания торрента необходимо зарегистрироваться или войти на трекер.

Вернуться в Фильмы 2016-2020


Яндекс.Метрика