Закат / Napszállta [2018, драма, WEB-DLRip AVC]

Модератор: Модераторы


Раздал: 1.52 ТБ
Скачал: 261.85 ГБ
Ратио: 5.961
Сообщения: 127

Зарегистрирован: 24 июл 2012, 21:04
Закат / Napszállta

«Ужасы мира скрываются под бесконечно милыми вещами»

Год выхода: 2018
Жанр: драма
Выпущено: Венгрия, Франция, Hungarian National Film Fund
Режиссёр: Ласло Немеш / Nemes László

В ролях: Юли Якаб, Влад Иванов, Эвелин Добош, Марцин Чарник, Левенте Молнар, Юлия Якубовска, Кристиан Хартинг, Михай Кормош, Шандор Жотер, Дороттья Молдован, Юдит Бартош, Сюзанна Вуэст, Том Пилат, Энрике Кайл, Балаж Цукор, Жольт Надь, Петер Фанчикаи, Арон Эзе, Уве Лауэр, Урс Рехн, Иштван Пион, Бьёрн Фрайберг и др.

Описание: 1913 год, Будапешт, сердце Европы. Молодая полная решимости Ирис Лейтер приезжает в столицу Венгрии. Она пытается устроиться на работу в качестве модистки в легендарный шляпный магазин, который когда-то принадлежал ее покойным родителям. Новый владелец выгоняет бывшую наследницу, ставшую жертвой жестоких интриг. Ирис отказывается покинуть город и начинает собственное расследование тайн прошлого на темных улицах Будапешта в канун Первой мировой войны.



Качество: WEB-DLRip AVC
Перевод: Профессиональный многоголосый
Продолжительность: 02:21:29

Формат: MKV
Источник: Закат_2018-WEB-DL 1080p_KORSAR
Видео: 960x540 at 23.976 fps, MPEG-4 AVC, ~1829 kbps avg
Аудио #1: Russian: 48 kHz, AC3, 3/2 (L,C,R,l,r) + LFE ch, ~384.00 kbps avg |Многоголосый закадровый, iTunes|

Релиз:
Рип: whip93
General
Unique ID : 40645152408361602139821958203168714787 (0x1E93F8BB8C1BB7D5D401DF6CB0A2F023)
Complete name : C:\Фильмы\Napszállta.2018.WEB-DLRip.DD5.1.x264-CasStudio.mkv
Format : Matroska
Format version : Version 4
File size : 2.19 GiB
Duration : 2 h 21 min
Overall bit rate : 2 214 kb/s
Movie name : Закат | Napszállta (2018) - Release by whip93 x CasStudio
Encoded date : UTC 2019-05-14 07:14:40
Writing application : mkvmerge v33.1.0 ('Primrose') 64-bit
Writing library : libebml v1.3.7 + libmatroska v1.5.0

Video
ID : 1
Format : AVC
Format/Info : Advanced Video Codec
Format profile : High@L4.1
Format settings : CABAC / 16 Ref Frames
Format settings, CABAC : Yes
Format settings, ReFrames : 16 frames
Codec ID : V_MPEG4/ISO/AVC
Duration : 2 h 21 min
Bit rate : 1 829 kb/s
Width : 960 pixels
Height : 540 pixels
Display aspect ratio : 16:9
Frame rate mode : Constant
Frame rate : 24.000 FPS
Color space : YUV
Chroma subsampling : 4:2:0
Bit depth : 8 bits
Scan type : Progressive
Bits/(Pixel*Frame) : 0.147
Stream size : 1.81 GiB (83%)
Title : Encoded by whip93
Writing library : x264 core 157 r2932 303c484
Encoding settings : cabac=1 / ref=16 / deblock=1:-3:-3 / analyse=0x3:0x133 / me=umh / subme=11 / psy=1 / psy_rd=1.00:0.00 / mixed_ref=1 / me_range=48 / chroma_me=1 / trellis=2 / 8x8dct=1 / cqm=0 / deadzone=21,11 / fast_pskip=1 / chroma_qp_offset=-2 / threads=12 / lookahead_threads=3 / sliced_threads=0 / nr=0 / decimate=1 / interlaced=0 / bluray_compat=0 / constrained_intra=0 / bframes=10 / b_pyramid=2 / b_adapt=2 / b_bias=0 / direct=3 / weightb=1 / open_gop=0 / weightp=2 / keyint=240 / keyint_min=24 / scenecut=40 / intra_refresh=0 / rc_lookahead=60 / rc=2pass / mbtree=0 / bitrate=1829 / ratetol=1.0 / qcomp=0.72 / qpmin=0 / qpmax=69 / qpstep=4 / cplxblur=20.0 / qblur=0.5 / vbv_maxrate=62500 / vbv_bufsize=78125 / nal_hrd=none / filler=0 / ip_ratio=1.40 / pb_ratio=1.30 / aq=3:0.80
Language : Hungarian
Default : Yes
Forced : No
Color range : Limited
Color primaries : BT.709
Transfer characteristics : BT.709
Matrix coefficients : BT.709

Audio
ID : 2
Format : AC-3
Format/Info : Audio Coding 3
Commercial name : Dolby Digital
Codec ID : A_AC3
Duration : 2 h 21 min
Bit rate mode : Constant
Bit rate : 384 kb/s
Channel(s) : 6 channels
Channel layout : L R C LFE Ls Rs
Sampling rate : 48.0 kHz
Frame rate : 31.250 FPS (1536 SPF)
Bit depth : 16 bits
Compression mode : Lossy
Stream size : 389 MiB (17%)
Title : MVO (iTunes)
Language : Russian
Service kind : Complete Main
Default : Yes
Forced : No

--- raw [info]: 960x540p 1:1 @ 24/1 fps (cfr)
--- x264 [info]: using SAR=1/1
--- x264 [info]: using cpu capabilities: MMX2 SSE2Fast SSSE3 SSE4.2 AVX
--- x264 [info]: profile High, level 4.1, 4:2:0, 8-bit
--- x264 [info]: frame I:914 Avg QP:14.86 size: 43258
--- x264 [info]: frame P:50492 Avg QP:17.29 size: 17997
--- x264 [info]: frame B:152329 Avg QP:19.98 size: 6512
--- x264 [info]: consecutive B-frames: 1.3% 5.3% 8.6% 46.1% 15.6% 20.3% 1.6% 0.5% 0.2% 0.2% 0.2%
--- x264 [info]: mb I I16..4: 8.4% 79.9% 11.7%
--- x264 [info]: mb P I16..4: 1.2% 8.3% 0.8% P16..4: 33.4% 40.0% 11.0% 0.7% 0.0% skip: 4.5%
--- x264 [info]: mb B I16..4: 0.1% 0.6% 0.1% B16..8: 36.3% 21.3% 3.0% direct: 5.8% skip:32.7% L0:44.3% L1:45.7% BI:10.0%
--- x264 [info]: 8x8 transform intra:80.0% inter:66.5%
--- x264 [info]: direct mvs spatial:97.4% temporal:2.6%
--- x264 [info]: coded y,uvDC,uvAC intra: 79.4% 80.1% 44.7% inter: 22.4% 15.8% 0.8%
--- x264 [info]: i16 v,h,dc,p: 47% 9% 5% 39%
--- x264 [info]: i8 v,h,dc,ddl,ddr,vr,hd,vl,hu: 9% 6% 9% 10% 14% 14% 13% 13% 13%
--- x264 [info]: i4 v,h,dc,ddl,ddr,vr,hd,vl,hu: 14% 6% 17% 7% 13% 13% 11% 10% 10%
--- x264 [info]: i8c dc,h,v,p: 40% 24% 20% 16%
--- x264 [info]: Weighted P-Frames: Y:2.6% UV:1.4%
--- x264 [info]: ref P L0: 45.5% 7.3% 17.7% 6.2% 5.1% 3.6% 3.3% 1.8% 1.7% 1.4% 1.4% 1.2% 1.2% 1.1% 1.1% 0.7%
--- x264 [info]: ref B L0: 77.8% 9.8% 4.2% 2.0% 1.4% 1.1% 0.9% 0.6% 0.5% 0.4% 0.4% 0.4% 0.3% 0.3% 0.1%
--- x264 [info]: ref B L1: 96.4% 3.6%
--- x264 [info]: kb/s:1828.49
  • Торрент
Для скачивания торрента необходимо зарегистрироваться или войти на трекер.

Вернуться в Фильмы 2016-2020


Яндекс.Метрика