Работа без авторства / Werk ohne Autor [2018, триллер, драма, мелодрама, история, BDRip 720p]

Модератор: Модераторы


Раздал: 1.52 ТБ
Скачал: 264.4 ГБ
Ратио: 5.905
Сообщения: 125

Зарегистрирован: 24 июл 2012, 21:04
Работа без авторства / Werk ohne Autor

«Не отводи взгляд»

Год выхода: 2018
Жанр: триллер, драма, мелодрама, история
Выпущено: Германия, Италия, Sony Pictures Classics
Режиссёр: Флориан Хенкель фон Доннерсмарк

В ролях: Том Шиллинг , Себастьян Кох , Паула Беер , Заския Розендаль , Оливер Мазуччи , Ханно Коффлер , Кай Корс , Евгений Сидихин, Ульрике С. Чарре, Йорг Шютауф, Жанетт Хайн, Ханс-Уве Бауэр, Ина Вайс, Ларс Айдингер, Йоханна Гастдорф и др.

Описание: История великого немецкого художника Герхарда Рихтера, детство которого пришлось на нацистские годы, что повлияло не только на его жизнь, но и на его творчество. Будучи уже творцом, в юношеские годы он узнал в отце своей возлюбленной человека, причастного к преступлениям, и посредством творчества обличил его перед общественностью.



Качество: BDRip 720p
Перевод: Профессиональный многоголосый
Продолжительность: 03:09:04

Формат: MKV
Источник: Never.Look.Away.2018.GERMAN.1080p.BluRay.REMUX.AVC.DTS-HD.MA.5.1-FGT
Видео: 1280x964 at 23.976 fps, MPEG-4 AVC, ~6683 kbps avg
Аудио #1: Russian: 48 kHz, AAC, 2/0 (L,R) ch, ~192.00 kbps avg |Многоголосый закадровый, HDrezka Studio|
Аудио #2: Multi: 48 kHz, AC3, 3/2 (L,C,R,l,r) + LFE ch, ~640.00 kbps avg
Субтитры: Russian (А. Винтер), German (SDH)

Релиз:
Рип, синхронизация звука и субтитров: whip93
General
Unique ID : 71950728624749811806947091325197019738 (0x362134CEA0B1363AC0D9286BAEF0EA5A)
Complete name : C:\Фильмы\Werk.ohne.Autor.2018.720p.BluRay.AAC2.0.x264-CasStudio.mkv
Format : Matroska
Format version : Version 4
File size : 9.93 GiB
Duration : 3 h 9 min
Overall bit rate : 7 517 kb/s
Movie name : Работа без авторства | Werk ohne Autor (2018) - Release by whip93 x CasStudio
Encoded date : UTC 2019-06-28 09:56:55
Writing application : mkvmerge v35.0.0 ('All The Love In The World') 64-bit
Writing library : libebml v1.3.9 + libmatroska v1.5.2

Video
ID : 1
Format : AVC
Format/Info : Advanced Video Codec
Format profile : High@L4.1
Format settings : CABAC / 9 Ref Frames
Format settings, CABAC : Yes
Format settings, ReFrames : 9 frames
Codec ID : V_MPEG4/ISO/AVC
Duration : 3 h 9 min
Bit rate : 6 683 kb/s
Width : 1 280 pixels
Height : 694 pixels
Display aspect ratio : 1.85:1
Frame rate mode : Constant
Frame rate : 23.976 (24000/1001) FPS
Color space : YUV
Chroma subsampling : 4:2:0
Bit depth : 8 bits
Scan type : Progressive
Bits/(Pixel*Frame) : 0.314
Stream size : 8.83 GiB (89%)
Title : Encoded by whip93
Writing library : x264 core 157 r2932 303c484
Encoding settings : cabac=1 / ref=9 / deblock=1:-3:-3 / analyse=0x3:0x113 / me=umh / subme=11 / psy=1 / psy_rd=1.10:0.00 / mixed_ref=0 / me_range=48 / chroma_me=1 / trellis=2 / 8x8dct=1 / cqm=0 / deadzone=21,11 / fast_pskip=1 / chroma_qp_offset=-2 / threads=12 / lookahead_threads=3 / sliced_threads=0 / nr=0 / decimate=1 / interlaced=0 / bluray_compat=0 / constrained_intra=0 / bframes=13 / b_pyramid=2 / b_adapt=2 / b_bias=0 / direct=3 / weightb=1 / open_gop=0 / weightp=2 / keyint=240 / keyint_min=23 / scenecut=40 / intra_refresh=0 / rc_lookahead=60 / rc=crf / mbtree=0 / crf=16.0 / qcomp=0.72 / qpmin=0 / qpmax=69 / qpstep=4 / vbv_maxrate=62500 / vbv_bufsize=78125 / crf_max=0.0 / nal_hrd=none / filler=0 / ip_ratio=1.40 / pb_ratio=1.30 / aq=3:0.80
Language : English
Default : Yes
Forced : No
Color range : Limited
Color primaries : BT.709
Transfer characteristics : BT.709
Matrix coefficients : BT.709

Audio #1
ID : 2
Format : AAC LC
Format/Info : Advanced Audio Codec Low Complexity
Codec ID : A_AAC-2
Duration : 3 h 8 min
Bit rate : 192 kb/s
Channel(s) : 2 channels
Channel layout : L R
Sampling rate : 48.0 kHz
Frame rate : 46.875 FPS (1024 SPF)
Compression mode : Lossy
Stream size : 258 MiB (3%)
Title : MVO (HDrezka Studio)
Language : Russian
Default : Yes
Forced : No

Audio #2
ID : 3
Format : AC-3
Format/Info : Audio Coding 3
Commercial name : Dolby Digital
Codec ID : A_AC3
Duration : 3 h 9 min
Bit rate mode : Constant
Bit rate : 640 kb/s
Channel(s) : 6 channels
Channel layout : L R C LFE Ls Rs
Sampling rate : 48.0 kHz
Frame rate : 31.250 FPS (1536 SPF)
Bit depth : 16 bits
Compression mode : Lossy
Stream size : 866 MiB (9%)
Title : Original
Language : Multiple languages
Service kind : Complete Main
Default : No
Forced : No

Text #1
ID : 4
Format : UTF-8
Codec ID : S_TEXT/UTF8
Codec ID/Info : UTF-8 Plain Text
Duration : 2 h 59 min
Bit rate : 51 b/s
Count of elements : 1216
Stream size : 67.3 KiB (0%)
Title : А. Винтер
Language : Russian
Default : No
Forced : No

Text #2
ID : 5
Format : UTF-8
Codec ID : S_TEXT/UTF8
Codec ID/Info : UTF-8 Plain Text
Duration : 3 h 8 min
Bit rate : 46 b/s
Count of elements : 1816
Stream size : 64.3 KiB (0%)
Title : Original (SDH)
Language : German
Default : No
Forced : No

Menu
00:00:00.000 : en:Chapter 01
00:11:19.136 : en:Chapter 02
00:20:51.708 : en:Chapter 03
00:35:03.726 : en:Chapter 04
00:47:33.225 : en:Chapter 05
00:58:23.124 : en:Chapter 06
01:11:14.061 : en:Chapter 07
01:24:26.603 : en:Chapter 08
01:35:05.157 : en:Chapter 09
01:42:30.853 : en:Chapter 10
02:00:02.320 : en:Chapter 11
02:10:00.793 : en:Chapter 12
02:20:50.859 : en:Chapter 13
02:34:51.573 : en:Chapter 14
02:46:28.061 : en:Chapter 15
02:59:03.441 : en:Chapter 16

---[Information] [27.06.2019 9:19:14] raw [info]: 1280x694p 1:1 @ 24000/1001 fps (cfr)
---[Information] [27.06.2019 9:19:14] x264 [info]: using SAR=1/1
---[Information] [27.06.2019 9:19:14] x264 [info]: using cpu capabilities: MMX2 SSE2Fast SSSE3 SSE4.2 AVX
---[Information] [27.06.2019 9:19:14] x264 [info]: profile High, level 4.1, 4:2:0, 8-bit
---[Information] [27.06.2019 23:50:34] x264 [info]: frame I:2119 Avg QP:11.96 size:150031
---[Information] [27.06.2019 23:50:34] x264 [info]: frame P:51335 Avg QP:13.38 size: 67089
---[Information] [27.06.2019 23:50:34] x264 [info]: frame B:218538 Avg QP:15.20 size: 26150
---[Information] [27.06.2019 23:50:34] x264 [info]: consecutive B-frames: 1.1% 0.8% 5.6% 12.5% 18.1% 42.6% 10.3% 3.9% 1.8% 1.0% 0.6% 0.2% 0.7% 0.8%
---[Information] [27.06.2019 23:50:34] x264 [info]: mb I I16..4: 6.2% 77.7% 16.1%
---[Information] [27.06.2019 23:50:34] x264 [info]: mb P I16..4: 1.1% 19.1% 1.5% P16..4: 35.3% 27.3% 8.8% 0.0% 0.0% skip: 7.1%
---[Information] [27.06.2019 23:50:34] x264 [info]: mb B I16..4: 0.3% 2.7% 0.2% B16..8: 33.6% 23.2% 5.6% direct: 8.4% skip:26.1% L0:44.0% L1:42.7% BI:13.2%
---[Information] [27.06.2019 23:50:34] x264 [info]: 8x8 transform intra:86.1% inter:47.3%
---[Information] [27.06.2019 23:50:34] x264 [info]: direct mvs spatial:100.0% temporal:0.0%
---[Information] [27.06.2019 23:50:34] x264 [info]: coded y,uvDC,uvAC intra: 89.1% 92.2% 86.8% inter: 39.0% 29.2% 9.0%
---[Information] [27.06.2019 23:50:34] x264 [info]: i16 v,h,dc,p: 81% 9% 3% 7%
---[Information] [27.06.2019 23:50:34] x264 [info]: i8 v,h,dc,ddl,ddr,vr,hd,vl,hu: 11% 8% 15% 9% 12% 11% 11% 11% 12%
---[Information] [27.06.2019 23:50:34] x264 [info]: i4 v,h,dc,ddl,ddr,vr,hd,vl,hu: 15% 8% 16% 8% 12% 11% 10% 10% 11%
---[Information] [27.06.2019 23:50:34] x264 [info]: i8c dc,h,v,p: 58% 16% 14% 12%
---[Information] [27.06.2019 23:50:34] x264 [info]: Weighted P-Frames: Y:2.8% UV:1.5%
---[Information] [27.06.2019 23:50:34] x264 [info]: ref P L0: 41.9% 3.2% 20.3% 8.3% 8.4% 4.9% 5.8% 3.1% 4.1% 0.1% 0.0%
---[Information] [27.06.2019 23:50:34] x264 [info]: ref B L0: 61.5% 15.2% 8.0% 5.2% 3.9% 3.4% 2.1% 0.6%
---[Information] [27.06.2019 23:50:34] x264 [info]: ref B L1: 92.3% 7.7%
---[Information] [27.06.2019 23:50:34] x264 [info]: kb/s:6682.95
---[Information] [27.06.2019 23:50:34] encoded 271992 frames, 5.20 fps, 6682.95 kb/s
  • Торрент
Для скачивания торрента необходимо зарегистрироваться или войти на трекер.

Раздал: 1.52 ТБ
Скачал: 264.4 ГБ
Ратио: 5.905
Сообщения: 125

Зарегистрирован: 24 июл 2012, 21:04
Рип с американского издания (без хардсаба на русский и с иной цветопередачей). Звук скачан с сайта "HDrezka" и подогнан без пересжатия.

Вернуться в Фильмы 2016-2020


Яндекс.Метрика