Олдбой / Oldboy [2003, триллер, детектив, драма, боевик, криминал, BDRip AVC] AVO (Ю. Сербин)

Модератор: Модераторы


Раздал: 1.52 ТБ
Скачал: 275.2 ГБ
Ратио: 5.674
Сообщения: 130

Зарегистрирован: 24 июл 2012, 21:04
Олдбой / Oldboy

Год выхода: 2003
Жанр: триллер, детектив, драма, боевик, криминал
Выпущено: Корея Южная, Egg Films, Show East
Режиссёр: Пак Чхан-ук / Chan-wook Park

В ролях: Чхве Мин Сик, Ю Чжи Тэ, Кан Хё Чжон, Чи Дэ Хан, О Даль Су, Ким Пён Ок, Ли Сон Син, Юн Чжин Со, Ли Дэ Ён, О Кван Рок и др.

Описание: 1988 год. Обыкновенного семьянина О Дэ-су похищают неизвестные. Он приходит в себя в комнате без окон, которая станет его тюрьмой на долгие годы. Кто же так люто его ненавидит, что за безумец приговорил его к такому чудовищному заточению? Проходит 15 лет, О Дэ-су снова на свободе, и он мечтает о возмездии. Все, что у него есть: бумажник, набитый деньгами, и мобильный телефон, на который поступает звонок от незнакомца, затеявшего очередную кошмарную игру. Преисполненный чувством мести О Дэ-су пытается раскрыть дьявольскую тайну.


Качество: BDRip AVC
Перевод: Авторский
Продолжительность: 01:59:58

Формат: MKV
Источник: Oldboy 2003 Remastered 1080p GBR Blu-ray AVC DTS-HD MA 5.1-CrsS
Видео: 960x410 at 23.976 fps, MPEG-4 AVC, ~2175 kbps avg
Аудио #1: Russian: 48 kHz, AC3, 3/2 (L,C,R,l,r) + LFE ch, ~448.00 kbps avg |Авторский, Ю. Сербин|

Релиз:
Рип: whip93
General
Unique ID : 330600795383831754700046724565929375257 (0xF8B765AB69941D6CAE1DB6C7A2313619)
Complete name : C:\Раздачи\Oldboy.2003.BDRip-AVC.DD5.1.x264-CasStudio.mkv
Format : Matroska
Format version : Version 4
File size : 2.20 GiB
Duration : 1 h 59 min
Overall bit rate : 2 625 kb/s
Movie name : Олдбой | Oldboy (2003) - Release by whip93 x CasStudio
Encoded date : UTC 2020-02-23 15:33:47
Writing application : mkvmerge v40.0.0 ('Old Town Road + Pony') 64-bit
Writing library : libebml v1.3.9 + libmatroska v1.5.2

Video
ID : 1
Format : AVC
Format/Info : Advanced Video Codec
Format profile : High@L4.1
Format settings : CABAC / 16 Ref Frames
Format settings, CABAC : Yes
Format settings, ReFrames : 16 frames
Codec ID : V_MPEG4/ISO/AVC
Duration : 1 h 59 min
Bit rate : 2 175 kb/s
Width : 960 pixels
Height : 410 pixels
Display aspect ratio : 2.35:1
Frame rate mode : Constant
Frame rate : 23.976 (24000/1001) FPS
Color space : YUV
Chroma subsampling : 4:2:0
Bit depth : 8 bits
Scan type : Progressive
Bits/(Pixel*Frame) : 0.231
Stream size : 1.82 GiB (83%)
Title : Encoded by whip93
Writing library : x264 core 159 r2991 1771b55
Encoding settings : cabac=1 / ref=16 / deblock=1:-3:-3 / analyse=0x3:0x113 / me=umh / subme=10 / psy=1 / psy_rd=1.00:0.00 / mixed_ref=0 / me_range=32 / chroma_me=1 / trellis=2 / 8x8dct=1 / cqm=0 / deadzone=21,11 / fast_pskip=1 / chroma_qp_offset=-2 / threads=12 / lookahead_threads=3 / sliced_threads=0 / nr=0 / decimate=1 / interlaced=0 / bluray_compat=0 / constrained_intra=0 / bframes=16 / b_pyramid=2 / b_adapt=2 / b_bias=0 / direct=1 / weightb=1 / open_gop=0 / weightp=2 / keyint=250 / keyint_min=23 / scenecut=40 / intra_refresh=0 / rc=crf / mbtree=0 / crf=19.8 / qcomp=0.72 / qpmin=0 / qpmax=69 / qpstep=4 / ip_ratio=1.40 / pb_ratio=1.30 / aq=3:0.80
Language : Korean
Default : Yes
Forced : No
Color range : Limited
Color primaries : BT.709
Transfer characteristics : BT.709
Matrix coefficients : BT.709

Audio
ID : 2
Format : AC-3
Format/Info : Audio Coding 3
Commercial name : Dolby Digital
Codec ID : A_AC3
Duration : 1 h 59 min
Bit rate mode : Constant
Bit rate : 448 kb/s
Channel(s) : 6 channels
Channel layout : L R C LFE Ls Rs
Sampling rate : 48.0 kHz
Frame rate : 31.250 FPS (1536 SPF)
Bit depth : 16 bits
Compression mode : Lossy
Stream size : 384 MiB (17%)
Title : AVO (Ю. Сербин)
Language : Russian
Service kind : Complete Main
Default : Yes
Forced : No

Menu
00:00:00.000 : en:Chapter 01
00:05:59.984 : en:Chapter 02
00:12:16.193 : en:Chapter 03
00:18:10.756 : en:Chapter 04
00:28:40.844 : en:Chapter 05
00:33:57.452 : en:Chapter 06
00:42:37.054 : en:Chapter 07
00:47:36.603 : en:Chapter 08
00:52:45.537 : en:Chapter 09
01:00:59.781 : en:Chapter 10
01:12:36.685 : en:Chapter 11
01:19:26.803 : en:Chapter 12
01:29:10.803 : en:Chapter 13
01:40:55.340 : en:Chapter 14
01:49:27.060 : en:Chapter 15

raw [info]: 960x410p 1:1 @ 24000/1001 fps (cfr)
x264 [info]: using SAR=1/1
x264 [info]: using cpu capabilities: MMX2 SSE2Fast SSSE3 SSE4.2 AVX
x264 [info]: profile High, level 4.1, 4:2:0, 8-bit
x264 [info]: frame I:955 Avg QP:17.89 size: 48190
x264 [info]: frame P:30761 Avg QP:19.30 size: 22600
x264 [info]: frame B:140854 Avg QP:21.49 size: 8633
x264 [info]: consecutive B-frames: 1.3% 1.5% 3.9% 11.0% 14.6% 34.7% 8.8% 4.5% 3.8% 3.3% 3.1% 1.9% 2.8% 3.4% 0.8% 0.4% 0.4%
x264 [info]: mb I I16..4: 3.3% 85.0% 11.8%
x264 [info]: mb P I16..4: 0.5% 12.4% 1.1% P16..4: 59.8% 16.4% 7.5% 0.0% 0.0% skip: 2.3%
x264 [info]: mb B I16..4: 0.0% 0.7% 0.1% B16..8: 49.8% 9.7% 3.0% direct: 7.3% skip:29.4% L0:47.6% L1:45.5% BI: 6.9%
x264 [info]: 8x8 transform intra:88.1% inter:66.2%
x264 [info]: coded y,uvDC,uvAC intra: 94.7% 85.4% 64.8% inter: 37.7% 29.2% 5.6%
x264 [info]: i16 v,h,dc,p: 25% 35% 9% 31%
x264 [info]: i8 v,h,dc,ddl,ddr,vr,hd,vl,hu: 7% 8% 6% 11% 15% 14% 14% 12% 13%
x264 [info]: i4 v,h,dc,ddl,ddr,vr,hd,vl,hu: 9% 9% 2% 10% 16% 14% 15% 11% 13%
x264 [info]: i8c dc,h,v,p: 46% 22% 17% 15%
x264 [info]: Weighted P-Frames: Y:14.5% UV:10.1%
x264 [info]: ref P L0: 35.9% 6.8% 16.9% 7.4% 6.7% 4.6% 4.5% 2.6% 2.7% 2.1% 2.1% 1.7% 1.8% 1.5% 1.6% 1.1%
x264 [info]: ref B L0: 54.0% 14.0% 8.3% 4.9% 3.8% 3.2% 2.7% 1.8% 1.6% 1.4% 1.3% 1.2% 1.1% 0.7% 0.2%
x264 [info]: ref B L1: 89.9% 10.1%
x264 [info]: kb/s:2175.37
  • Торрент
Для скачивания торрента необходимо зарегистрироваться или войти на трекер.

Вернуться в Фильмы по 2010 год


Яндекс.Метрика